Loading...
Error
 

Скачать торрент Хоккей. Чемпионат Мира 2019. Группа B. России - Швейцарии (19.05.2019)[ 2019 г., Спорт, HDTV 1080p]

 
Автор Сообщение

centoriuse

post 20-Май-19 00:53

pic
Хоккей. Чемпионат Мира 2019. Группа B. России - Швейцарии (19.05.2019)

Год выпуска: 2019
Страна: Словакия, Первый канал HD
Вид спорта: Хоккей
Комментаторы: Кирилл Корнилов, Александр Хаванов
Жанр: Спорт
Продолжительность: 02:02:00
Перевод: Не требуется
Субтитры: Отсутствует
Описание:
Чемпионат мира по хоккею с шайбой-2019, который проходит в Словакии с 10 по 26 мая. В турнире участвуют 16 команд, которые разбиты на две группы. Наши соперники по группе - Швеция, Чехия, Швейцария, Норвегия, Латвия, Австрия и Италия. В плей-офф выходят по 4 лучших команды из каждой группы. Комментируют ЧМ по хоккею-2019 на Первом - Александр Кузмак и Андрей Юртаев. Приглашённый эксперт - 2-кратный Олимпийский чемпион и 4-кратный чемпион мира - Игорь Ларионов. 2019 г.

Качество: HDTV 1080p
Формат: MKV
Видео кодек: AVC
Аудио кодек: MP3
Видео: 1920x1080 (16:9), 25.000 fps, 5 000 Kbps
Аудио: 48.0 KHz, 2 ch, 256 Kbps, CBR
Mediainfo:

Код:

Общее
Уникальный идентификатор                 : 46762641886883223895796093875966465396 (0x232E2840268DEF5E02295B3833D45574)
Полное имя                               : F:\видео\ТВ передачи\Хоккей. Чемпионат Мира 2019. Группа B. России - Швейцарии (19.05.2019) HDTV 1080p.mkv
Формат                                   : Matroska
Версия формата                           : Version 4
Размер файла                             : 4,50 Гбайт
Продолжительность                        : 2 ч. 2 м.
Режим общего битрейта                    : Постоянный
Общий поток                              : 5261 Кбит/сек
Программа кодирования                    : Lavf57.71.100
Библиотека кодирования                   : Lavf57.71.100
ErrorDetectionType                       : Per level 1

Видео
Идентификатор                            : 1
Формат                                   : AVC
Формат/Информация                        : Advanced Video Codec
Профиль формата                          : [email protected]
Настройки формата                        : CABAC / 1 Ref Frames
Параметр CABAC формата                   : Да
Параметр RefFrames формата               : 1 кадр
Параметр GOP формата                     : M=1, N=25
Идентификатор кодека                     : V_MPEG4/ISO/AVC
Продолжительность                        : 2 ч. 2 м.
Вид битрейта                             : Постоянный
Битрейт                                  : 5000 Кбит/сек
Ширина                                   : 1920 пикселей
Высота                                   : 1080 пикселей
Соотношение сторон                       : 16:9
Режим частоты кадров                     : Постоянный
Частота кадров                           : 25,000 кадров/сек
Цветовое пространство                    : YUV
Субдискретизация насыщенности            : 4:2:0
Битовая глубина                          : 8 бит
Тип развёртки                            : Прогрессивная
Бит/(Пиксели*Кадры)                      : 0.096
Размер потока                            : 4,19 Гбайт (93%)
Default                                  : Да
Forced                                   : Нет

Аудио
Идентификатор                            : 2
Формат                                   : MPEG Audio
Версия формата                           : Version 1
Профиль формата                          : Layer 3
Настройки формата                        : Joint stereo / MS Stereo
Идентификатор кодека                     : A_MPEG/L3
Идентификатор кодека/Подсказка           : MP3
Продолжительность                        : 2 ч. 2 м.
Вид битрейта                             : Постоянный
Битрейт                                  : 256 Кбит/сек
Каналы                                   : 2 канала
Частота                                  : 48,0 КГц
Метод сжатия                             : С потерями
Размер потока                            : 224 Мбайт (5%)
Язык                                     : Russian
Default                                  : Да
Forced                                   : Нет

Скриншоты:
. Чемпионат Мира 2019. Группа B. России - Швейцарии (19.05.2019) HDTV 1080p.mkv.torrent
Трекер: Зарегистрирован

magnet ссылка

 


Скачать .torrent

23 KB

Статус: проверено (by Snowden в 20-Май-19 00:54)
Зарегистрирован: 20-Май-19 00:53
Скачан: 2 раза
Размер: 4.5 GB | 
Поблагодарили:
Скачать Хоккей. Чемпионат Мира 2019. Группа B. России - Швейцарии (19.05.2019)[ 2019 г., Спорт, HDTV 1080p] торрент
 


Похожие раздачи

fenomen232

post 20-Май-19 08:22 (спустя 7 часов)

и где же раздача?

Текущее время: 20-Авг 06:15

Часовой пояс: GMT + 3



Вы не можете начинать темы
Вы не можете отвечать на сообщения
Вы не можете редактировать свои сообщения
Вы не можете удалять свои сообщения
Вы не можете голосовать в опросах
Вы не можете прикреплять файлы к сообщениям
Вы не можете скачивать файлы