Loading...
Error
 

Скачать торрент Мастера меча онлайн / Sword Art Online (Сезон 01-02) (01-50 Серия из 50) ( Ито Томохико) [2012-2014, аниме, мультфильм, фантастика, фэнтези, боевик, приключения, BDRip] [DUB] [СВ-дубль]

 
Автор Сообщение

mayson95

post 16-Апр-19 11:49

pic
Мастера меча онлайн / Sword Art Online [S01-02]

Год выпуска: 2012-2014
Страна: Япония, A-1 Pictures Inc.
Жанр: аниме, мультфильм, фантастика, фэнтези, боевик, приключения, ...
(Сезон 01-02)
Серии 01-50 из 50
Продолжительность: 50х ~00:24:00
Перевод: Профессиональный Дубляж (озвучено СВ-дубль по заказу МедиаФильм, Телеканал FAN)
Субтитры: Русские (Полные) * (Перевод опенинга+ пояснение моментов аниме)- Внешние
В ролях: Ёсицугу Мацуока, Харука Томацу, Ито Канаэ, Аяна Такэтацу, Миюки Савасиро, Аяхи Такагаки, Рина Хидака, Синъя Такахаси, Хироки Ясумото, Соитиро Хоси
Режиссёр: Ито Томохико
Описание:И вот вышла многопользовательская игра нового поколения — игра, где смерть реальна и бегство невозможно. Единственный выход — дойти до конца. А называется игра «Sword Art Online». Не зная этой правды, десять тысяч игроков, используя нейрошлемы компании «Агис», зарегистрировались одновременно и тем самым положили начало смертельной битве, длящейся уже два долгих года. Главный герой Кирито принимает правила игры и не собирается сдаваться. В этом игровом мире, в гигантской парящей крепости под названием Айнкрад, он стал игроком-одиночкой. Чтобы выйти из игры, ему придётся пройти все 100 этажей этого огромного сооружения. Однако, не в силах противостоять настойчивости мастера рапиры Асуны, он начинает работать с ней в паре. Возможно, эта встреча предопределит судьбу всей игры...
Качество: BDRip / (Исходник Sword Art Online S01-02 Mysterious Riddle & timeghost_ BDRemux 1080p)
Формат: AVI
Видео кодек: XviD
Аудио кодек: AC3
Видео: 720x400 (16:9), 23.976 fps, XviD build 73 ~1570 kbps avg, 0.23 bit/pixel
Аудио №1 : AC-3, 48.0 KHz, 2 ch, 192 Kbps, CBR (Русский) [Дубляж]
Аудио №2 : AC-3, 48.0 KHz, 2 ch, 192 Kbps, CBR (Японский) [Оригинал]
Рип Deadmauvlad
Рейтинг
pic
Список эпизодов
1 Сезон
01. The World of Swords
02. Beater
03. The Red-Nosed Reindeer
04. The Black Swordsman
05. A Crime Within the Walls
06. Illusionary Avenger
07. The Temperature of the Heart
08. The Sword Dance of White and Black
09. The Blue-Eyed Demon
10. Crimson Killing Intent
11. The Girl of the Morning Dew
12. Yui`s Heart
13. Edge of Hell`s Abyss
14. The End of the World
15. Return
16. Land of the Fairies
17. Captive Queen
18. To the World Tree
19. The Lugru Corridor
20. General of the Blazing Flame
21. The Truth of Alfheim
22. Grand Quest
23. Bonds
24. Gilded Hero
25. The World Seed
2 Сезон
01. The World of Guns
02. Cold-Hearted Sniper
03. Memories of Fresh Blood
04. GGO
05. Guns and Swords
06. Showdown in the Wilderness
07. Crimson Memories
08. Bullet of Bullets
09. Death Gun
10. Death Chaser
11. What It Means To Be Strong
12. Bullet of a Phantom
13. Phantom Bullet
14. One Little Step
15. The Queen of the Lake
16. The King of the Giants
17. Excaliber
18. Forest House
19. Zekken
20. Sleeping Knights
21. Swordman`s Memorial
22. Journey`s End
23. Beginning of a Dream
24. Mother`s Rosario
Спэшл. 14,5 серия. Debriefingl
MediaInfo

Код:

Общее
Полное имя                               : D:\Mastera.Mecha.Online.S01-02.2012-2014.BDRip.Deadmauvlad\Sword.Art.Online.S01.2012.D.BDRip.Deadmauvlad\Sword.Art.Online.S01.2012.D.BDRip.Deadmauvlad.Ep.01.avi
Формат                                   : AVI
Формат/Информация                        : Audio Video Interleave
Размер файла                             : 334 Мбайт
Продолжительность                        : 23 м. 42 с.
Общий поток                              : 1969 Кбит/сек
Название фильма                          : Ma$ter1.Me4a Onl!ne.2012.D.S01 Ep.01.BDRip.Deadmauvlad
Режиссёр                                 : Deadmauvlad
Жанр                                     : Action/Adventure
Программа кодирования                    : VirtualDubMod 1.5.10.3 | (build 2550/release)
Библиотека кодирования                   : VirtualDubMod build 2550/release
Формат оригинала/Имя                     : Anime
Авторское право                          : Deadmauvlad
Примечание                               : Edcoder by Deadmauvlad

Видео
Идентификатор                            : 0
Формат                                   : MPEG-4 Visual
Профиль формата                          : Advanced [email protected]
Настройки формата                        : BVOP1 / Custom Matrix
Параметр BVOP формата                    : 1
Параметр QPel формата                    : Нет
Параметр GMC формата                     : Без точки перехода
Параметр матрицы формата                 : Выборочная
Идентификатор кодека                     : XVID
Идентификатор кодека/Подсказка           : XviD
Продолжительность                        : 23 м. 42 с.
Битрейт                                  : 1571 Кбит/сек
Ширина                                   : 720 пикселей
Высота                                   : 400 пикселей
Соотношение сторон                       : 16:9
Частота кадров                           : 23,976 (24000/1001) кадра/сек
Цветовое пространство                    : YUV
Субдискретизация насыщенности            : 4:2:0
Битовая глубина                          : 8 бит
Тип развёртки                            : Прогрессивная
Метод сжатия                             : С потерями
Бит/(Пиксели*Кадры)                      : 0.227
Размер потока                            : 266 Мбайт (80%)
Библиотека кодирования                   : XviD 73

Аудио #1
Идентификатор                            : 1
Формат                                   : AC-3
Формат/Информация                        : Audio Coding 3
Коммерческое название                    : Dolby Digital
Идентификатор кодека                     : 2000
Продолжительность                        : 23 м. 42 с.
Вид битрейта                             : Постоянный
Битрейт                                  : 192 Кбит/сек
Каналы                                   : 2 канала
Channel layout                           : L R
Частота                                  : 48,0 КГц
Частота кадров                           : 31,250 кадров/сек (1536 SPF)
Битовая глубина                          : 16 бит
Метод сжатия                             : С потерями
Размер потока                            : 32,6 Мбайт (10%)
Выравнивание                             : Разделение по промежуткам
Продолжительность промежутка             : 42  мс. (1,00 видеокадр)
Время предзагрузки промежутка            : 500  мс.
ServiceKind/String                       : Complete Main

Аудио #2
Идентификатор                            : 2
Формат                                   : AC-3
Формат/Информация                        : Audio Coding 3
Коммерческое название                    : Dolby Digital
Идентификатор кодека                     : 2000
Продолжительность                        : 23 м. 42 с.
Вид битрейта                             : Постоянный
Битрейт                                  : 192 Кбит/сек
Каналы                                   : 2 канала
Channel layout                           : L R
Частота                                  : 48,0 КГц
Частота кадров                           : 31,250 кадров/сек (1536 SPF)
Битовая глубина                          : 16 бит
Метод сжатия                             : С потерями
Размер потока                            : 32,6 Мбайт (10%)
Выравнивание                             : Разделение по промежуткам
Продолжительность промежутка             : 42  мс. (1,00 видеокадр)
Время предзагрузки промежутка            : 500  мс.
ServiceKind/String                       : Complete Main
Скриншоты
Mastera.Mecha.Online.S01-02.2012-2014.torrent
 СЕРЕБРЯНАЯ РАЗДАЧА! СКАЧАННОЕ ЗАСЧИТЫВАЕТСЯ ТОЛЬКО НАПОЛОВИНУ! 
Вечный
Трекер: Зарегистрирован

magnet ссылка

 


Скачать .torrent

35 KB

Статус: проверено (by Snowden в 12-Июн-19 16:56)
Зарегистрирован: 12-Июн-19 16:46
Скачан: 34 раза
Размер: 16.26 GB | 
Поблагодарили:
Скачать Мастера меча онлайн / Sword Art Online (Сезон 01-02) (01-50 Серия из 50) ( Ито Томохико) [2012-2014, аниме, мультфильм, фантастика, фэнтези, боевик, приключения, BDRip] [DUB] [СВ-дубль] торрент
 


Похожие раздачи

mayson95

post 12-Июн-19 16:47 (спустя 1 месяц 26 дней)

Торрент обновлен !! Добавлен 2ой сезон + добавлена оригинальная аудиодорожка (японский язык) для 1 и 2 сезона

Текущее время: 11-Дек 00:54

Часовой пояс: GMT + 3



Вы не можете начинать темы
Вы не можете отвечать на сообщения
Вы не можете редактировать свои сообщения
Вы не можете удалять свои сообщения
Вы не можете голосовать в опросах
Вы не можете прикреплять файлы к сообщениям
Вы не можете скачивать файлы